Сваляйте без регистрация. Всеки нов акаунт получава 200 GB ъплоуд!
     
Каталог

Търси Торенти Категория Статус  

<< Предишна страница      Следваща страница >>
1 - 15 | 16 - 30 | 31 - 45 | ... | 211 - 225 | 226 - 240 | 241 - 253




Субтитри в торента
 Големина:
2.91 GB
Название: Tiny, Athletic Brunette Teen Jericha Jem Gives Good Bj Wearing Glasses
Год выхода: 2018
Выпущено: BangRealTeens.com/Bang.com
Жанр: All Sex, Big Dick, Big Tits, Hardcore, Anal, Big Ass, PornStar.
В ролях: Jericha Jem
Продолжительность: 50mn 3s

Качество: FullHD
Формат: mp4
Видео: MPEG-4, AVC at 1 200 Kbps, 1920 x 1080, 25.000 fps AVC
Аудио: AAC at 128 Kbps, 2 channels, 48.0 KHz

pictures:

http://i101.fastpic.ru/thumb/2018/0115/2e/15595e34b28b19c72607e67c8ed98f2e.jpeg
сийдъри / лийчъри: 6 / 15
  Рейтинг : Няма рейтинг
Добавен: 16/01/2018


Субтитри в торента
 Големина:
1.61 GB

Дата производства: 2018
Роли: Sandra Wellness
Жанры: Gonzo, Hardcore, Anal, Rimming
Оригинальное название: Rimjob Relax Part 3 - Your Day

Продолжительность: 00:27:42;
Видео: H.264 / AVC / MPEG-4 AVC / MPEG-4 part 10; Video: 1920x1080, 16:9, 30fps, 7.64Mbps;
Аудио: AAC (Advanced Audio Coding); Audio: 315Kbps, 2 channels (stereo);

Pictures:

http://images2.imagebam.com/56/97/5d/3b4eeb719325533.jpeg
сийдъри / лийчъри: 28 / 15
  Рейтинг : Няма рейтинг
Добавен: 16/01/2018


Субтитри в торента
 Големина:
471.26 MB
Название: Perky teen debuts with anal
Год выхода: 2018
Выпущено: Private.com
Жанр: All Sex, Big Dick, Big Tits, Hardcore, Anal, Big Ass, PornStar.
В ролях: Kate Rich
Продолжительность: 25mn 6s

Качество: HD
Формат: mp4
Видео: MPEG-4, AVC at 1 200 Kbps, 1280 x 720, at 25.000 fps
Аудио: AAC at 128 Kbps, 2 channels, 48.0 KHz



Снимка:

http://i102.fastpic.ru/thumb/2018/0115/0e/6dc96d0e5fec7ffd43be469d9fc0040e.jpeg
http://i103.fastpic.ru/thumb/2018/0115/ec/323a4812196c3747b09e17d8172d61ec.jpeg
сийдъри / лийчъри: 23 / 6
  Рейтинг : Няма рейтинг
Добавен: 16/01/2018


Субтитри в торента
 Големина:
982.47 MB
Имя актриссы: Lovenia Lux
Название: Beautiful sex on the table
Дата выхода: 2017
Сайт и подсайт: LoveniaLux.com
Жанр: Teen, All sex, Oral
Продолжительность: 00:25:38

Качество: FullHD
Тип качества: 1080p
Формат: mp4
Видео: AVC, 1920x1080, 25.000 FPS, 5000 kb/s
Звук: AAC LC, 44.1 kHz, 2 channels, 152 kb/s

Снимка:

http://i102.fastpic.ru/thumb/2018/0115/e1/df42ce88e99e8572ac39893f6b70b2e1.jpeg
сийдъри / лийчъри: 21 / 13
  Рейтинг : Няма рейтинг
Добавен: 16/01/2018


Субтитри в торента
 Големина:
711.46 MB
Дата производства: 08.01.2018
Роли: Piper Perri
Жанры: all sex
Оригинальное название: Love And Lemonade

Продолжительность: 00:41:32;
Видео: H.264 / AVC / MPEG-4 AVC / MPEG-4 part 10; Video: 1280x720, 16:9, 23.98fps, 2.16Mbps;
Аудио: AAC (Advanced Audio Coding); Audio: 125Kbps, 2 channels (stereo);

СНИМКА
http://images2.imagebam.com/2c/75/81/f5d510711019413.jpeg
сийдъри / лийчъри: 6 / 1
  Рейтинг : Няма рейтинг
Добавен: 09/01/2018


Субтитри в торента
 Големина:
222.01 MB
Год производства: 2017
Жанр: All Sex, Teen
Продолжительность: 00:29:03
Тип HD видео: 720p
Видео: H.265/HEVC/x265 1280x720 25fps
Аудио: 48000Hz stereo 128 Kbps

http://i91.fastpic.ru/big/2017/0207/a1/9cfa5c9cb34467a56979e088c2e431a1.jpeg
сийдъри / лийчъри: 35 / 6
  Рейтинг :
Добавен: 08/02/2017


Субтитри в торента
 Големина:
1.14 GB
Жанр: Teen, Brunette, Skinny, Petite, Hardcore, Gonzo, All Sex
Название ролика: Teen Skater Girl
Продолжительность: 00:27:58
Год производства: 2017
Роли: Catarina Petrov

Видео: AVC at 5721 Кбит/сек Aspect : 1920 x 1080 (1.77 at 23.976 fps
Аудио: AAC at 128 Кбит/сек Infos : 2 канала, 48,0 КГц

http://thumbnails117.imagebam.com/53135/5c0dc4531343944.jpg
сийдъри / лийчъри: 13 / 8
  Рейтинг : Няма рейтинг
Добавен: 08/02/2017


Субтитри в торента
 Големина:
679.69 MB
Дата производства: 2016
Роли: Zoe Voss
Жанры: Amateur, Babysitter, Big Cock, Blowjob, Cumshot, Deepthroat, Hardcore, Skinny, Small Tits, Teen
Название: Surprised Tight Pussy

Видео: AVC, 1920x1080, 25.000 FPS, 3200 kb/s
Аудио: AAC LC, 44.1 kHz, 2 channels, 128 kb/s
Формат файла: mp4
Продолжительность: 0030

http://thumbnails117.imagebam.com/53139/3d9201531383838.jpg
сийдъри / лийчъри: 33 / 11
  Рейтинг : Няма рейтинг
Добавен: 08/02/2017


Субтитри в торента
 Големина:
550.82 MB
Жанр: Teen, All Sex
Продолжительность: 0005
Год производства: 2017

Видео: AVC at 2600 Кбит/сек Aspect : 1280 x 720 (1.77 at 29.970 fps
Аудио: AAC at 128 Кбит/сек Infos : 2 канала, 48,0 КГц

http://thumbnails117.imagebam.com/53138/a45b1c531376925.jpg
сийдъри / лийчъри: 37 / 6
  Рейтинг : Няма рейтинг
Добавен: 08/02/2017


Субтитри в торента
 Големина:
961.34 MB
Дата производства: 2016
Роли: Trinity St Clair
Жанры: 18 yo, Anal, Ass Fucking, Blowjob, Brunettes, Cumshot, Hardcore, Petite, Small Tits, Teen
Название: Tight Clit And Ass Nailed

Видео: AVC, 1920x1080, 25.000 FPS, 3200 kb/s
Аудио: AAC LC, 44.1 kHz, 2 channels, 128 kb/s
Формат файла: mp4
Продолжительность: 00:40:24

http://thumbnails117.imagebam.com/53140/447eae531397293.jpg
сийдъри / лийчъри: 18 / 12
  Рейтинг : Няма рейтинг
Добавен: 08/02/2017


Субтитри в торента
 Големина:
786.68 MB
В ролях: Janice Griffith
Оригинальное название: Roommates Forever Part3
Год выпуска: 15.01.2017
Сайт подсайт: Spizoo
Продолжительность: 00:21


http://i89.fastpic.ru/thumb/2017/0115/89/23666cc6f03cb30b669ee053ce6d2a89.jpeg

Техданные
Видео
Идентификатор : 1
Формат : AVC
Формат/Информация : Advanced Video Codec
Профиль формата : [email protected]
Параметр CABAC формата : Нет
Параметр ReFrames формата : 3 кадра
Идентификатор кодека : avc1
Идентификатор кодека/Информация : Advanced Video Coding
Продолжительность : 21 м. 40 с.
Битрейт : 5000 Кбит/сек
Ширина : 1280 пикселей
Высота : 720 пикселей
Соотношение сторон : 16:9
Режим частоты кадров : Постоянный
Частота кадров : 30,000 кадров/сек
Цветовое пространство : YUV
Субдискретизация насыщенности : 4:2:0
Битовая глубина : 8 бит
Тип развёртки : Прогрессивная
Бит/(Пиксели*Кадры) : 0.181
Размер потока : 766 Мбайт (97%)
Библиотека кодирования : x264 core 146 r109 121396c
Настройки программы : cabac=0 / ref=3 / deblock=1:0:0 / analyse=0x3:0x113 / me=hex / subme=7 / psy=1 / psy_rd=1.00:0.00 / mixed_ref=1 / me_range=16 / chroma_me=1 / trellis=1 / 8x8dct=1 / cqm=0 / deadzone=21,11 / fast_pskip=1 / chroma_qp_offset=-2 / threads=12 / lookahead_threads=2 / sliced_threads=0 / nr=0 / decimate=1 / interlaced=0 / bluray_compat=0 / constrained_intra=0 / bframes=0 / weightp=2 / keyint=250 / keyint_min=25 / scenecut=40 / intra_refresh=0 / rc_lookahead=40 / rc=abr / mbtree=1 / bitrate=5000 / ratetol=1.0 / qcomp=0.60 / qpmin=0 / qpmax=69 / qpstep=4 / ip_ratio=1.40 / aq=1:1.00

Аудио
Идентификатор : 2
Формат : AAC
Формат/Информация : Advanced Audio Codec
Профиль формата : LC
Идентификатор кодека : 40
Продолжительность : 21 м. 40 с.
Duration_LastFrame : -18 мс.
Вид битрейта : Постоянный
Битрейт : 128 Кбит/сек
Каналы : 2 канала
Расположение каналов : Front: L R
Частота : 44,1 КГц
Частота кадров : 43,066 кадра/сек (1024 spf)
Метод сжатия : С потерями
Размер потока : 19,9 Мбайт (3%)
Язык : English
Default : Да
Alternate group : 1
сийдъри / лийчъри: 3 / 0
  Рейтинг : Няма рейтинг
Добавен: 15/01/2017


Субтитри в торента
 Големина:
869.88 MB
Название: Double Dip
Год выхода: 2017
Выпущено: NubilesNetwork.com/MomsTeachSex.com
В ролях: Alexis Fawx, Lily Rader
Продолжительность: 33mn 14s

http://i89.fastpic.ru/thumb/2017/0115/aa/e6244692154458726cbb5032e8a848aa.jpeg

Техданные
Видео
Идентификатор : 1
Формат : HEVC
Формат/Информация : High Efficiency Video Coding
Профиль формата : [email protected]@Main
Идентификатор кодека : V_MPEGH/ISO/HEVC
Продолжительность : 33 м. 14 с.
Битрейт : 3616 Кбит/сек
Ширина : 1920 пикселей
Высота : 1080 пикселей
Соотношение сторон : 16:9
Режим частоты кадров : Постоянный
Частота кадров : 23,976 (24000/1001) кадра/сек
Частота кадров в оригинале : 23,000 кадра/сек
Цветовое пространство : YUV
Субдискретизация насыщенности : 4:2:0
Битовая глубина : 8 бит
Бит/(Пиксели*Кадры) : 0.073
Размер потока : 860 Мбайт (99%)
Default : Да
Forced : Нет

Аудио
Идентификатор : 2
Формат : AAC
Формат/Информация : Advanced Audio Codec
Профиль формата : LC
Идентификатор кодека : A_AAC
Продолжительность : 33 м. 14 с.
Битрейт : 40,0 Кбит/сек
Каналы : 2 канала
Расположение каналов : Front: L R
Частота : 44,1 КГц
Частота кадров : 43,066 кадра/сек (1024 spf)
Метод сжатия : С потерями
Задержка видео : 10 мс.
Размер потока : 9,50 Мбайт (1%)
Default : Да
Forced : Нет
сийдъри / лийчъри: 2 / 2
  Рейтинг : Няма рейтинг
Добавен: 15/01/2017


Субтитри в торента
 Големина:
1.21 GB
Название: No time on foreplay
Год выхода: 2016
Выпущено: NoBoring/TeenMegaWorld
В ролях: Angelina B, Sasha
Продолжительность: 32mn 22s

Снимка:
http://i86.fastpic.ru/thumb/2016/1221/57/3d3db1e278b566f755817c46591ecd57.jpeg
сийдъри / лийчъри: 1 / 2
  Рейтинг : Няма рейтинг
Добавен: 22/12/2016


Субтитри в торента
 Големина:
322.73 MB
Дата производства: 2016
Роли: Frida Sante
Жанры: pov, all sex, amateurs, MILF, blowjob
Название: Sinful Lap Dance

Видео: AVC, 1280x720, 50.000 fps, 2500 Kbps
Аудио: AAC LC, 48.0 KHz, 2 channels, 119 Kbps
Формат файла: mp4
Продолжительность: 00:17:12

сийдъри / лийчъри: 1 / 0
  Рейтинг : Няма рейтинг
Добавен: 23/10/2016


Субтитри в торента
 Големина:
475.05 MB
Дата производства: 2016
Роли: Ariana Marie
Жанры: pov, all sex, amateurs, MILF, blowjob
Название: A wonderful young body

Видео: AVC, 1280x720, 50.000 fps, 2500 Kbps
Аудио: AAC LC, 48.0 KHz, 2 channels, 119 Kbps
Формат файла: mp4
Продолжительность: 00:25:15

сийдъри / лийчъри: 2 / 0
  Рейтинг :
Добавен: 23/10/2016


1 - 15 | 16 - 30 | 31 - 45 | ... | 211 - 225 | 226 - 240 | 241 - 253
<< Предишна страница      Следваща страница >>


Статистиката се обновява автоматично
Потребители: 15612 , Регистрирани днес: 2
Торенти: 13634 , Споделени торенти днес: 0
За контакти:    [email protected]
Btit Tracker - Moded by Captain and SPYWARE
All rights reserved 2013 © 2018 AvantaBG.com