placeholder    Можете да теглите без регистрация. Всеки нов акаунт получава 200 GB ъплоуд!
             
Каталог

Търси Торенти Категория Статус  

<< Предишна страница      Следваща страница >>
1 - 15 | 16 - 30 | 31 - 45 | ... | 8761 - 8775 | 8776 - 8790 | 8791 - 8800





 Големина:
699.90 MB
Заглавие: Земята: Ново начало

Режисьор: М. Найт Шаямалан

В ролите: Джейдън Смит, Уил Смит, Софи Оконедо, Зоуи Кравиц

Държава: САЩ

Година: 2013

Жанр: Приключенски, Екшън, Мистерия

Времетраене: 100 минути

Субтитри: На линка

Резюме:
След принудително приземяване тийнейджъра Китай Рейдж (Джейдън Смит) и легендарния му баща Сайфър (Уил Смит) се озовават на Земята, хиляда години след катастрофалните събития, принудили човечеството да я напусне.

Сайфър е смъртоносно ранен и Китай сам трябва да тръгне на опасно пътешествие в търсене на помощ, справяйки се с непроходимия терен, еволюиралите животински видове, властващи на планетата, и безпощадното извънземно същество, избягало при катастрофата.

Баща и син трябва да се научат да работят заедно и да се доверяват един на друг, ако искат да се върнат у дома.
сийдъри / лийчъри: 1 / 0
  Рейтинг :
Добавен: 03/08/2013



 Големина:
1.35 GB
Заглавие: Опасен гост

Режисьор: Марк Стивън Джонсън

В ролите: Майло Вентимиглиа, Робърт де Ниро, Джон Траволта

Държава: САЩ, Белгия

Година: 2013

Жанр: Екшън, Трилър

Субтитри: На линка

Резюме:
Действието на лентата е ситуирано в планинската верига Апалачите, а историята ще разказва за ветеран от американската армия (Де Ниро), който води тих и спокоен живот в отдалечена от големите градове къща.
Малко след като се нанася в новия си дом, пенсионирания военен бива посетен от европейски турист (Траволта), с когото успява да се сприятели много бързо.
Но това което той не знае е, че новодошлия е всъщност войник от сръбската армия, който търси отмъщение.
сийдъри / лийчъри: 25 / 14
  Рейтинг : Няма рейтинг
Добавен: 03/08/2013



 Големина:
720.06 MB
Заглавие: Огненият пръстен

Режисьор: Гилермо дел Торо

В ролите: Брад Уилямс Хенке, Робърт Казински, Робин Томас, Ринко Кикучи

Държава: САЩ

Година: 2013

Жанр: Екшън, Фентъзи, Приключенски

Времетраене: 132 минути

Език: Руски

Субтитри: Нa линка

Резюме:

Когато множество ​​извънземни чудовища, известни като Кайджу, се надигат от дъното морето, започва война, която отнемa живота на милиони хора и изразходва ресурсите на човечеството. За да се сражават с гигантските Кайджу, хората създават специален вид оръжие: огромни роботи, наречени Йегер, които се управляват от двама пилоти едновременно, чрез общ невронен мост, в който техните умове са заключени.

Но дори и Йегерите се оказват неефективни пред лицето на безмилостните Кайджу. Почти достигнали прага на поражението, силите, защитаващи човечество, нямат друг избор, освен да се обърнат към двама нетипични героя – пропаднал бивш пилот (Чарли Хънам) и стажантка без практика (Ринко Кикучи), които заедно да управляват легендарен, макар и остарял, Йегер. Техният екип е последната надежда на човечеството срещу апокалипсиса.
сийдъри / лийчъри: 347 / 127
  Рейтинг : Няма рейтинг
Добавен: 03/08/2013



 Големина:
706.43 MB
Заглавие: Брадва 3

Режисьор: Б. Дж. МакДонъл

В ролите: Даниел Харис, Кейн Ходър, Зак Галиган, Дерек Миърс, Шон Уейлън

Държава: САЩ

Година: 2013

Жанр: Ужаси

Времетраене: 81 минути

Субтитри: На линка от  KikoDraka

Резюме:
Филмът продължава историята на Виктор Краули, известен като “Касапина от блатото”, а историята започва точно откъдето завърши предишния филм от поредицата. Младата Мерибет Дънстън продължава да издирва Виктор с надеждата, че ще успее да му отмъсти заради смъртта на приятелите и роднините си. Междувременно специален спасителен екип се насочва към обладаните блата със задачата да разбере какво точно се е случило и при нужда да окаже помощ на потенциални оцелели.
Докато екипа се опитва да нареди пъзела от случки Мерибет открива тайния източник на вуду-проклятието, което позволява на Виктор Краули да тероризира блатата на Хъни Айлънд в продължение на десетилетия.
Битката срещу злото предстои и не всеки ще успее да се измъкне жив.
сийдъри / лийчъри: 1 / 0
  Рейтинг :
Добавен: 03/08/2013


Субтитри: Няма
 Големина:
1.46 GB
НЯМА СУБТИТРИ ЗА МОМЕНТА

Native American warrior Tonto recounts the untold tales that transformed John Reid, a man of the law, into a legend of justice.



Director:
Gore Verbinski

Writers:
Justin Haythe (screenplay), Ted Elliott (screenplay)

Stars:
Johnny Depp, Armie Hammer, William Fichtner

Genres:
Action | Adventure | Western

Country:
USA

Language:
English



Format : AVI
Format/Info : Audio Video Interleave
File size : 1.45 GiB
Duration : 2h 20mn
Overall bit rate : 1 473 Kbps
Writing application : VirtualDubMod 1.5.10.2 (build 2540/release)
Writing library : VirtualDubMod build 2540/release

Video
ID : 0
Format : MPEG-4 Visual
Format profile : Advanced [email protected]
Format settings, BVOP : 2
Format settings, QPel : No
Format settings, GMC : No warppoints
Format settings, Matrix : Default (H.263)
Muxing mode : Packed bitstream
Codec ID : XVID
Codec ID/Hint : XviD
Duration : 2h 20mn
Bit rate : 1 336 Kbps
Width : 720 pixels
Height : 338 pixels
Display aspect ratio : 2.130
Frame rate : 24.000 fps
Color space : YUV
Chroma subsampling : 4:2:0
Bit depth : 8 bits
Scan type : Progressive
Compression mode : Lossy
Bits/(Pixel*Frame) : 0.229
Stream size : 1.31 GiB (91%)
Writing library : XviD 64

Audio
ID : 1
Format : MPEG Audio
Format version : Version 1
Format profile : Layer 3
Codec ID : 55
Codec ID/Hint : MP3
Duration : 2h 20mn
Bit rate mode : Constant
Bit rate : 128 Kbps
Channel(s) : 2 channels
Sampling rate : 44.1 KHz
Compression mode : Lossy
Stream size : 129 MiB (9%)
Alignment : Split accross interleaves
Interleave, duration : 42 ms (1.00 video frame)
Interleave, preload duration : 500 ms



Source Used The.Lone.Rangers.2013.iTALiAN.MD.HDCAM.XviD-RAVERS / A FRiEND - Thanks



сийдъри / лийчъри: 4423 / 1613
  Рейтинг : Няма рейтинг
Добавен: 09/07/2013



 Големина:
700.02 MB
Заглавие: Alien Uprising 2012 | Бунтът срещу нашествениците (2012)

Режисьор: Доминик Бърнс

Сценарист: Доминик Бърнс

В ролите: Участват: Bianca Bree, Sean Brosnan, Simon Phillips, Maya Grant, Jazz Lintott, Joey Ansah, Sean Pertwee, Julian Glover

Държава: САЩ

Година: 2012

Жанр: Sci-Fi

Времетраене: 1h : 41mn

Език: Английски

Субтитри: Български

Релийз: HDRip XviD-S4A

Резюме:
За филма:
Име: Бунтът срещу нашествениците | Известен и като : U.F.O.
Приятели се събират за една вечер в един бар. Животът е прекрасен като двойка споделят своя миг предложение. Когато изведнъж странни неща започнат да се случват. Прекъсването на електрозахранването в целия град и един огромен самолет кръжи във въздуха над главите им. Приятели се борят да оцелеят като цялата човешка раса е заплашена от чужда армията.





Info:
Формат: AVI
Размер: 700 MiB
Видео: XviD | 640 х 272 | 829 Kbps | 23.976 FPS | 2.35:1 Аудио: English | 128 Kbps | 2 CH | MP3 Времетраене: 1h 41mn
Субтитри: English | Български _ Prevoda e s Google translate.
Reliis: HDRip XviD-S4A
сийдъри / лийчъри: 455 / 34
  Рейтинг :
Добавен: 08/07/2013



 Големина:
701.01 MB
Резюме : Това е продължение на култовия филм от 2003г.,в който един човек може да променя миналото като си припомня забравните спомени чрез изпадането си в безсъзнание.Ник Ларсън и най-добрите му приятели Тревър Йистман и Аманда празнуват 24тия рожден ден на приятелката му Джули Милър на едно красиво езеро в неделна утрин.Ник очаква повишение в компанията,където работи и Джули планира да се премести при него,вместо да отиде до Ню Йорк и да продължи обучението си за магистърска степен.Ник обаче получава обаждане от колега-Дейв Бристол,който е обсъждал повишението с Ник ,като е извикан да се срещне с клиент.Докато пътува,Ник катастрофира и Джули и приятелите му загиват.Една година по-късно Ник открива,че може да пътува във времето и се опитва да оправи миналото,но това само носи трагични последствия за бъдещето.

Durata............: 01:32:22

Video Codec.......: XviD
Video Bitrate.....: 895 kb/s
Risoluzione.......: 672x352 (1.91:1) [=21:11]
FPS (Frames/sec)..: 23.976
QF (Frame quality): 0.158 bits/pixel

Audio Codec.......: MP3
Audio Bitrate.....: 158 kb/s (79/ch, stereo)
Freq Audio........: 48000 Hz
сийдъри / лийчъри: 5 / 0
  Рейтинг : Няма рейтинг
Добавен: 02/07/2013



 Големина:
702.00 MB
>> Резюме : В "Удуърд" - затвор за престъпници с психически отклонения, досега под надзора на криминалния психолог Миранда Грей, има нов, неочакван и много неуравновесен пациент. Затворникът е самата доктор Грей. Хали Бери е в ролята на Грей, обвинена в жестоко убийство и несигурна в собствения си разум, след сблъсъка си с поредица необясними явления в "Готика". Колега доктор (Робърт Дауни-Джуниър) и непостоянна съкилийничка (Пенелопе Круз) се опитват да й помогнат в мъчителното изпитание. Матю Касовиц режисира тази разтърсваща призрачна история, изпълнена със странни гласове и написани с кръв послания, в която единственото по-ужасяващо от внезапното събуждане на Миранда Грей в света на лудостта, е трескавия й опит да се измъкне оттам.

Country.......: USA
Genre.........: Horror, Thriller
Date release..: 13.11.2003 [World]
Director......: Mathieu Kassovitz
Writers.......: Sebastian Gutierrez
Duration......: 94 min.
More..........: http://www.imdb.com/title/tt0348836
Trailer.......: http://www.imdb.com/video/screenplay/vi3819569433
Trailer.......: http://www.youtube.com/watch?v=E3fFxMHT0hQ

Pilot :
Ghost story in which a repressed female psychiatrist wakes up as a patient in the very asylum where she worked with no memory of why she is there and what she has done.

Cats :
Halle Berry ... Miranda Grey
Robert Downey Jr. ... Pete Graham
Charles S. Dutton ... Dr. Douglas Grey
John Carroll Lynch ... Sheriff Ryan
Bernard Hill ... Phil Parsons
Penelope Cruz ... Chloe Sava
Dorian Harewood ... Teddy Howard
Bronwen Mantel ... Irene
Kathleen Mackey ... Rachel Parsons
Matthew G. Taylor ... Turlington
Michel Perron ... Joe
Andrea Sheldon ... Tracey Seavers
Anana Rydvald ... Glass Cell Nurse
Laura Mitchell ... Inmate
Amy Sloan ... Inmate

Data Technical :
!!! SAMPLE !!!
Audio.....: Lector Polish
Subtitles.: Polish .txt
Video.....: XviD 640x352 25.00fps [Video]
Audio.....: MPEG Audio Layer 3 48000Hz stereo 133kbps [Audio]
сийдъри / лийчъри: 8 / 4
  Рейтинг : Няма рейтинг
Добавен: 02/07/2013


Субтитри: Няма
 Големина:
1.51 GB




United Nations employee Gerry Lane traverses the world in a race against time to stop the Zombie pandemic that is toppling armies and governments, and threatening to destroy humanity itself.



Director:
Marc Forster

Writers:
Matthew Michael Carnahan (screenplay), Drew Goddard (screenplay)

Stars:
Brad Pitt, Mireille Enos, Daniella Kertesz

Genres:
Action |  Drama |  Horror |  Sci-Fi |  Thriller


Source: THC
Audio: THC & NOGRP

http://www.imdb.com/title/tt0816711/

Format                           : AVI
Format/Info                      : Audio Video Interleave
File size                        : 1.49 GiB
Duration                         : 1h 48mn
Overall bit rate                 : 1 967 Kbps
Writing library                  : VirtualDub build 35390/release

Video
ID                               : 0
Format                           : MPEG-4 Visual
Format profile                   : Advanced [email protected]
Format settings, BVOP            : Yes
Format settings, QPel            : No
Format settings, GMC             : No warppoints
Format settings, Matrix          : Default (H.263)
Muxing mode                      : Packed bitstream
Codec ID                         : XVID
Codec ID/Hint                    : XviD
Duration                         : 1h 48mn
Bit rate                         : 1 830 Kbps
Width                            : 720 pixels
Height                           : 304 pixels
Display aspect ratio             : 2.35:1
Frame rate                       : 24.000 fps
Color space                      : YUV
Chroma subsampling               : 4:2:0
Bit depth                        : 8 bits
Scan type                        : Progressive
Bits/(Pixel*Frame)               : 0.348
Stream size                      : 1.39 GiB (93%)
Writing library                  : XviD 1.2.1 (UTC 2008-12-04)

Audio
ID                               : 1
Format                           : MPEG Audio
Format version                   : Version 1
Format profile                   : Layer 3
Mode                             : Joint stereo
Mode extension                   : MS Stereo
Codec ID                         : 55
Codec ID/Hint                    : MP3
Duration                         : 1h 48mn
Bit rate mode                    : Constant
Bit rate                         : 128 Kbps
Channel(s)                       : 2 channels
Sampling rate                    : 48.0 KHz
Stream size                      : 99.5 MiB (7%)
Alignment                        : Split accross interleaves
Interleave, duration             : 42 ms (1.00 video frame)
Interleave, preload duration     : 500 ms

Note:
Well...We not going to go into details on whats been done this time around... To much to say and went threw hell. Video has been adjusted for light and dark scenes and very very watchable...Our rating I would say V8 A6. So Please be thankful and leave a comment and even a Rep point if possible and also want to thank everyone who follows THC

сийдъри / лийчъри: 21 / 10
  Рейтинг :
Добавен: 01/07/2013



 Големина:
706.54 MB
Absolute Deception (2013) / Абсолютна измама(2013)

Режисьор: Брайан Тренчард-Смит
Жанр: Екшън.
Участват: Куба Гудинг мл., Емануел Воже, Еверт МакКуин, Ти Смит, Джеф Генон, Трой МакКайндер и др.
Държава: САЩ
Продължителност: 92 мин .
РЕЗЮМЕ: Овдовяла жена-репортер, търси помоща на федерален агент, който да разследва мистериозната смърт на покойния и съпруг, но заедно с агента тя става обект на неизвестни нападатели...

Screenshots:

[img]http://www.imagebg.com/?dt=ING0[/img] [img]http://www.imagebg.com/?dt=YM90[/img]

[img]http://www.imagebg.com/?dt=0Q8G[/img] [img]http://www.imagebg.com/?dt=QIY1[/img]
сийдъри / лийчъри: 1 / 0
  Рейтинг :
Добавен: 22/06/2013


1 - 15 | 16 - 30 | 31 - 45 | ... | 8761 - 8775 | 8776 - 8790 | 8791 - 8800
<< Предишна страница      Следваща страница >>


Статистиката се обновява автоматично
Потребители: 13949 , Регистрирани днес: 8
Торенти: 12581 , Споделени торенти днес: 0
За контакти:    [email protected]
Btit Tracker - Moded by Captain and SPYWARE
All rights reserved 2013 © 2017 AvantaBG.com